アニメダウンロード

[MEGA][REUP]SUPER LIBRO (1981)(52/52) COMPLETA AUDIO ENG

Página 2 de 2. Precedente  1, 2

Ver el tema anterior Ver el tema siguiente Ir abajo

[MEGA][REUP]SUPER LIBRO (1981)(52/52) COMPLETA AUDIO ENG

Mensaje por RICKHUNTER MASTER el Jue Ene 24, 2013 5:37 am

Recuerdo del primer mensaje :

[Tienes que estar registrado y conectado para ver esa imagen]
SUPER LIBRO
Inglés: Superbook
Sinónimos: Anime Oyako Gekijou
Japonés:アニメ親子劇場
Información
Tipo: TV
Episodios: 26
Estado: Finalizado Transmitido
Emisión: octubre 1, 1981 hasta marzo 29, 1982
Productores: Tatsunoko Productions
Géneros: Históricas , Sci-Fi
Duración: 24 min. por episodio


Sinopsis
La primera serie (Anime Oyako Gekijo) comenzó en la casa de un joven llamado Christopher Peepers (Sho Azuka en japonés) que descubre el mágico Biblia "Superbook" (Timebook) que habla y lo envía, su amigo de la alegría (Azusa Yamato), y su robot de juguete Gizmo (Zenmaijikake) en el tiempo hasta los primeros eventos del Antiguo Testamento.

IMAGEN:
[Tienes que estar registrado y conectado para ver esa imagen]

INFO.
Código:
General
Complete name                    : S_B_01.avi
Format                           : AVI
Format/Info                      : Audio Video Interleave
File size                        : 181 MiB
Duration                         : 24mn 18s
Overall bit rate                 : 1 041 Kbps

Video
ID                               : 1
Format                           : MPEG-4 Visual
Format profile                   : Simple@L3
Format settings, BVOP            : Yes
Format settings, QPel            : No
Format settings, GMC             : No warppoints
Format settings, Matrix          : Default (H.263)
Codec ID                         : XVID
Codec ID/Hint                    : XviD
Duration                         : 24mn 18s
Bit rate                         : 901 Kbps
Width                            : 640 pixels
Height                           : 480 pixels
Display aspect ratio             : 4:3
Frame rate                       : 29.970 fps
Color space                      : YUV
Chroma subsampling               : 4:2:0
Bit depth                        : 8 bits
Scan type                        : Progressive
Compression mode                 : Lossy
Bits/(Pixel*Frame)               : 0.098
Stream size                      : 157 MiB (87%)

Audio
ID                               : 0
Format                           : MPEG Audio
Format version                   : Version 1
Format profile                   : Layer 3
Mode                             : Joint stereo
Mode extension                   : MS Stereo
Codec ID                         : 55
Codec ID/Hint                    : MP3
Duration                         : 24mn 14s
Bit rate mode                    : Constant
Bit rate                         : 128 Kbps
Channel(s)                       : 2 channels
Sampling rate                    : 44.1 KHz
Compression mode                 : Lossy
Stream size                      : 22.2 MiB (12%)
Alignment                        : Aligned on interleaves
Interleave, duration             : 33 ms (1.00 video frame)
Writing library                  : LAME3.97
General
Complete name                    : E:\ZONA DESCARGAS\S_B_01.avi
Format                           : AVI
Format/Info                      : Audio Video Interleave
File size                        : 181 MiB
Duration                         : 24mn 18s
Overall bit rate                 : 1 041 Kbps

Video
ID                               : 1
Format                           : MPEG-4 Visual
Format profile                   : Simple@L3
Format settings, BVOP            : Yes
Format settings, QPel            : No
Format settings, GMC             : No warppoints
Format settings, Matrix          : Default (H.263)
Codec ID                         : XVID
Codec ID/Hint                    : XviD
Duration                         : 24mn 18s
Bit rate                         : 901 Kbps
Width                            : 640 pixels
Height                           : 480 pixels
Display aspect ratio             : 4:3
Frame rate                       : 29.970 fps
Color space                      : YUV
Chroma subsampling               : 4:2:0
Bit depth                        : 8 bits
Scan type                        : Progressive
Compression mode                 : Lossy
Bits/(Pixel*Frame)               : 0.098
Stream size                      : 157 MiB (87%)

Audio
ID                               : 0
Format                           : MPEG Audio
Format version                   : Version 1
Format profile                   : Layer 3
Mode                             : Joint stereo
Mode extension                   : MS Stereo
Codec ID                         : 55
Codec ID/Hint                    : MP3
Duration                         : 24mn 14s
Bit rate mode                    : Constant
Bit rate                         : 128 Kbps
Channel(s)                       : 2 channels
Sampling rate                    : 44.1 KHz
Compression mode                 : Lossy
Stream size                      : 22.2 MiB (12%)
Alignment                        : Aligned on interleaves
Interleave, duration             : 33 ms (1.00 video frame)
Writing library                  : LAME3.97

DATOS:
CALIDAD:640X480
AUDIO: INGLES
SUBTITULO: NO
PESO DE CADA EPISODIO: 180 A 200 MB X CDU


[Tienes que estar registrado y conectado para ver esa imagen]


Última edición por hikaruIchijo el Miér Jul 17, 2013 1:02 am, editado 1 vez
avatar
RICKHUNTER MASTER
Admin
Admin

Mensajes : 1633
Fecha de inscripción : 24/09/2012

http://universeanimedownloa.foromx.com

Volver arriba Ir abajo


Re: [MEGA][REUP]SUPER LIBRO (1981)(52/52) COMPLETA AUDIO ENG

Mensaje por kiritox95 el Jue Ago 11, 2016 1:14 am

Gracias

kiritox95

Mensajes : 1
Fecha de inscripción : 08/08/2015

Volver arriba Ir abajo

Re: [MEGA][REUP]SUPER LIBRO (1981)(52/52) COMPLETA AUDIO ENG

Mensaje por kasutaneda el Miér Oct 26, 2016 4:50 pm

Muchas gracias. La andaba buscando

kasutaneda

Mensajes : 2
Fecha de inscripción : 26/10/2016

Volver arriba Ir abajo

Re: [MEGA][REUP]SUPER LIBRO (1981)(52/52) COMPLETA AUDIO ENG

Mensaje por Katsumoto7 el Mar Dic 27, 2016 7:47 pm

genial serie lastima que no este en latino

Katsumoto7
NewMenber
NewMenber

Mensajes : 28
Fecha de inscripción : 31/12/2013

Volver arriba Ir abajo

Re: [MEGA][REUP]SUPER LIBRO (1981)(52/52) COMPLETA AUDIO ENG

Mensaje por amigoness el Vie Mayo 05, 2017 4:32 am

me parece una buena pagina veamos como nos, de antemano agradezco su bienvenida.

amigoness

Mensajes : 1
Fecha de inscripción : 05/05/2017

Volver arriba Ir abajo

Re: [MEGA][REUP]SUPER LIBRO (1981)(52/52) COMPLETA AUDIO ENG

Mensaje por Katsumoto7 el Vie Mayo 05, 2017 7:46 am

al menos alguien tiene los subtitulos en español

Katsumoto7
NewMenber
NewMenber

Mensajes : 28
Fecha de inscripción : 31/12/2013

Volver arriba Ir abajo

Re: [MEGA][REUP]SUPER LIBRO (1981)(52/52) COMPLETA AUDIO ENG

Mensaje por alvarockmaker el Miér Jul 19, 2017 4:27 am

Que genial!

alvarockmaker

Mensajes : 1
Fecha de inscripción : 19/07/2017

Volver arriba Ir abajo

Re: [MEGA][REUP]SUPER LIBRO (1981)(52/52) COMPLETA AUDIO ENG

Mensaje por Contenido patrocinado


Contenido patrocinado


Volver arriba Ir abajo

Página 2 de 2. Precedente  1, 2

Ver el tema anterior Ver el tema siguiente Volver arriba


 
Permisos de este foro:
No puedes responder a temas en este foro.